#TITLE:SPICE!;
#SUBTITLE:;
#ARTIST:Kagamine Len;
#TITLETRANSLIT:;
#SUBTITLETRANSLIT:;
#ARTISTTRANSLIT:;
#CREDIT:;
#BANNER:Kagamine Len - SPICE!-banner.jpg;
#BACKGROUND:Kagamine Len - SPICE!-bg.jpg;
#LYRICSPATH:Kagamine Len - SPICE!.lrc;
#CDTITLE:CDTitle.png;
#MUSIC:Kagamine Len - SPICE!.ogg;
#OFFSET:-0.440;
#SAMPLESTART:51.220;
#SAMPLELENGTH:12.000;
#SELECTABLE:YES;
#BPMS:0.000=115.000;
#STOPS:;
#BGCHANGES:;
// cache tags:
#FIRSTBEAT:3.000;
#LASTBEAT:187.000;
#SONGFILENAME:songs/Vocaloid Party/Kagamine Len - SPICE!/Kagamine Len - SPICE!.sm;
#HASMUSIC:1;
#HASBANNER:1;
#MUSICLENGTH:95.686;
// end cache tags

//---------------dance-single - ----------------
#NOTES:
     dance-single:
     :
     Challenge:
     10:
     0.627,0.562,0.439,0.188,0.376,355.000,42.000,18.000,10.000,11.000:

0000
0000
0000
0000
0000
0000
0000
0000
0000
0000
0000
0000
0010
0000
0000
0001
,
0010
0000
0010
0100
0000
0000
1000
0000
1010
0000
0001
0000
1000
0000
0000
0010
,
0010
0000
1000
1000
0000
0001
0001
0000
0110
0000
0001
0000
1000
0000
0000
0001
,
0010
0000
0100
1000
0000
0000
0001
0000
0011
0000
0001
0000
0100
0000
0000
0010
,
0010
1001
0000
1001
0110
1001
0110
0001
,
0010
0000
0100
1000
0000
0000
0010
0000
0100
0000
0001
0000
0010
0000
0000
0100
,
0000
0000
0010
0001
0000
0001
0000
0000
0100
0000
0001
0000
1000
0000
0010
0000
,
1000
0000
0010
0100
0000
0000
0001
0000
1000
0000
0100
0000
0202
0000
0000
0000
,
1010
0303
2020
0000
0101
3030
0100
0010
,
1000
0000
0001
0100
0000
0101
0000
0010
1000
0000
1000
0000
0001
0000
1000
0200
,
0000
0000
1300
0000
0001
0000
0100
0000
0100
0000
0010
0100
0000
0000
0001
0000
,
0100
0000
0010
0100
0000
0110
0000
0001
1000
0000
0010
0000
1000
0000
0100
0000
,
0010
0000
0001
0100
0010
0100
0001
0000
0001
0000
1000
0010
0100
0000
0010
0000
,
0010
0000
1000
0100
0000
1100
0000
0001
0010
0000
0001
0000
1000
0000
0001
0200
,
0000
0000
0310
0000
1000
0000
1000
0000
0001
0000
0010
0100
0000
0000
1000
0000
,
0010
0000
0100
0001
0000
0101
0000
0100
0001
0000
1000
0000
0010
0000
0100
0000
,
0010
0000
0010
1000
0010
1000
0010
0000
0100
0000
0010
1000
0001
0000
1000
0000
,
0010
0100
0010
1000
1010
0010
0100
0001
,
0010
0001
0100
0010
1000
0020
0000
0230
,
0000
0000
0001
0000
0000
0000
0310
0000
1010
0000
0100
0000
0101
0000
0000
0100
,
0000
1100
0000
0010
0110
2000
0000
3001
,
0020
0000
0100
0000
0030
0000
1000
0000
1001
0000
0010
0000
1000
0000
0000
0001
,
0000
0000
0100
0000
0000
0000
0010
0000
1000
0000
0001
0010
0000
0000
0100
0000
,
1000
0000
0001
0100
0010
0000
1000
0000
0002
0000
0200
0000
1010
0000
0303
0000
,
1110
0000
1011
0001
1001
0010
1100
0010
,
0100
0000
0001
0100
0010
0000
1000
0000
0010
0000
0100
0000
0001
0000
1000
0000
,
0001
0000
0010
0001
0000
1000
0100
0000
0010
0000
0001
0000
1000
0000
0100
0000
,
1000
0000
0010
1000
0100
0000
0010
0000
0100
0000
1000
0000
0010
0000
0100
0000
,
0001
0000
0010
0100
0000
0010
0001
0000
0100
0000
0010
0000
1000
0000
0010
0000
,
0100
0000
0001
0010
0001
0000
0100
0000
0010
0000
1000
0000
0100
0000
0010
0000
,
0100
1000
0001
0100
0010
0100
0001
0000
,
1100
0000
1000
0100
1000
0000
0001
0000
1000
0000
0020
0000
1100
0000
1000
0000
,
0101
2030
0101
0001
3110
0000
1000
0100
,
1000
0000
0100
1000
0010
0000
0100
0000
0010
0000
1000
0000
0010
0000
0000
0101
,
0000
0000
0100
0010
0100
0001
0100
0000
1010
0000
1000
0010
0100
0000
0001
0000
,
0010
0000
0100
0000
1000
0000
0010
0000
0100
0000
0010
0000
1000
0000
0000
1010
,
0000
0000
0010
0100
0001
0100
0010
0000
0101
0000
0001
1000
0001
0000
0100
0000
,
0001
0000
0010
0000
0100
0000
1000
0000
0001
0000
1000
0000
0010
0000
0000
0110
,
0000
0000
1000
0010
0100
0010
1000
0000
0011
0000
1000
0001
0100
0000
0010
0000
,
0100
0000
0010
1000
0000
0000
0100
0000
0100
0000
1000
0000
0002
0100
0000
0100
,
0003
0000
0020
1000
0000
1030
0010
0000
0100
0000
0001
0000
0010
0000
0001
0000
,
1000
0000
0001
0100
0000
0000
0010
0000
0010
0000
1000
0000
0200
1000
0000
1000
,
0300
0000
0020
0100
0000
0130
0010
0000
1000
0000
0001
0000
0010
0100
0000
0000
,
0000
0000
1000
0010
0000
0000
0100
0000
0010
0000
1000
0000
M11M
0000
0000
0000
,
M111
11MM
1111
MMMM
,
0000
0000
0000
0000
,
0000
0000
0000
M000
;

//---------------dance-single - ----------------
#NOTES:
     dance-single:
     :
     Beginner:
     1:
     0.072,0.070,0.000,0.042,0.000,44.000,0.000,4.000,0.000,0.000:
0000
0000
0000
0000
,
0000
0000
0000
0000
,
0000
0000
0000
0000
,
0000
0000
0000
0000
,
0000
0000
0000
0100
,
0000
0000
0000
0001
,
0000
0000
0000
1000
,
0000
0000
0000
0020
,
0000
1000
0030
1000
,
0000
0000
0000
0010
,
0000
0000
0000
0100
,
0000
0000
0000
0010
,
0000
0000
0000
1000
,
0000
0000
0000
0001
,
0000
0000
0000
0100
,
0000
0000
0000
0001
,
0000
0000
0000
0010
,
0000
0000
0000
0100
,
0000
0000
0000
0010
,
0000
0000
0000
0001
,
0000
0000
0000
1000
,
0000
0000
0000
0100
,
0000
0000
0000
1000
,
0000
0000
0000
0002
,
0000
1000
0003
0001
,
0000
0000
0000
1000
,
0000
0000
0000
0010
,
0000
0000
0000
0100
,
0000
0000
0000
0010
,
0000
0000
0000
1000
,
0000
0000
0000
0010
,
0000
0000
0000
2000
,
0000
0001
3000
0001
,
0000
0000
0000
0100
,
0000
0000
0000
0010
,
0000
0000
0000
1000
,
0000
0000
0000
0010
,
0000
0000
0000
0100
,
0000
0000
0000
0001
,
0000
0000
0000
1000
,
0000
0000
0000
0001
,
0000
0000
0000
0010
,
0000
0000
0000
0100
,
0000
0000
0000
2000
,
0000
0001
3000
0000
;

//---------------dance-single - ----------------
#NOTES:
     dance-single:
     :
     Hard:
     7:
     0.463,0.421,0.251,0.324,0.136,255.000,24.000,31.000,11.000,0.000:
0000
0000
0000
0000
0000
0000
0000
0000
0000
0000
0000
0000
0200
0000
0000
0001
,
0000
0000
0301
0000
0000
0000
0100
0000
0010
0000
0000
0000
2000
0000
0000
0100
,
0000
0000
3020
0000
0000
1000
0000
0000
1030
0000
1000
0000
2000
0000
0000
0100
,
0000
0000
3100
0000
0000
0000
1000
0000
0010
0000
0000
0000
0200
0000
0000
0010
,
0000
0310
0000
1000
1000
0000
0110
0000
,
0000
0000
1010
0000
0000
0000
0010
0000
1000
0000
0001
0000
0100
0000
0000
0100
,
0000
0100
0000
0010
1000
0100
0110
0000
,
0000
0101
0000
1000
0001
0100
1010
0000
,
0110
0000
0101
0000
1010
0000
0100
1000
,
0010
0000
0000
1000
0000
1000
0000
1000
0000
0000
0010
0000
0100
0000
0001
0000
,
0010
0000
0001
0100
0010
0100
0000
0001
,
1000
0000
0000
0010
0000
0010
0000
0010
0000
0000
1000
0000
0100
0000
1000
0000
,
0100
0020
0000
0031
1000
0001
0000
1000
,
0010
0000
0000
0100
0000
0100
0000
0100
0000
0000
0001
0000
0100
0000
0010
0100
,
0000
0001
1000
0100
0010
0001
0000
0001
,
1000
0000
0000
0001
0000
0001
0000
0001
0000
0000
0010
0000
0200
0000
0000
0000
,
2300
0000
3002
0000
0103
0002
0000
0000
,
0103
0010
0000
1000
0010
0000
1000
0100
,
0010
0001
0100
0010
0100
0002
0000
2000
,
0000
0000
0000
0000
0000
0000
3003
0000
0000
0000
0001
0000
0100
0000
0000
0101
,
0000
0101
0000
0100
0001
0100
0000
0010
,
1000
0000
0000
0000
0000
0000
0000
0000
1100
0000
0010
0000
1000
0000
0000
0001
,
0000
0100
0000
0010
0100
0001
0000
0000
,
0100
0001
0100
0010
1000
0100
1010
0000
,
0101
0000
0110
0010
1000
0100
0010
0000
,
0010
0000
0100
1000
0000
0020
0000
1000
,
0130
20M0
3000
0010
0100
0001
0010
0000
,
0010
0000
0001
0100
0000
0002
0000
0010
,
0103
002M
0030
0001
1000
0100
1000
0000
,
1000
0000
0010
1000
0000
0200
0000
0010
,
0301
0M20
0030
0100
0010
1000
0200
0000
,
0300
1000
0100
0010
0100
2000
0001
3001
,
0100
0100
0010
0010
0110
0000
1000
0000
,
0000
0000
0010
0000
0000
0000
1000
0000
0100
0000
0010
0000
0002
0000
0000
0013
,
0000
0110
0000
1000
0010
0100
0010
1000
,
0010
0000
0100
0000
0000
0000
0010
0000
1000
0000
0001
0000
0020
0000
0000
0130
,
0000
1100
0000
0010
0100
0001
0100
0010
,
1000
0000
0100
0000
0000
0000
1000
0000
0100
0000
0010
0000
0002
0000
0000
1003
,
0000
0101
0010
1000
0001
0100
0010
0000
,
0000
0000
0110
0000
0000
0000
0010
0000
1000
0000
0001
0000
0200
0000
0000
0320
,
0000
2030
0001
3100
0010
0001
0100
0000
,
0000
0000
1001
0000
0000
0000
0100
0000
0001
0000
0100
0000
0020
0000
0000
2030
,
0000
3002
1000
0103
0001
0010
0001
0100
,
0010
0100
0001
1000
0100
0010
0110
0MM0
,
1010
M0M0
0101
0M0M
2002
3003
M00M
0000
;

//---------------dance-single - ----------------
#NOTES:
     dance-single:
     :
     Easy:
     3:
     0.161,0.139,0.105,0.000,0.000,98.000,10.000,0.000,0.000,0.000:
0000
0000
0000
1000
,
0000
0000
0010
0100
,
0000
0000
0100
0001
,
0000
0000
0001
1000
,
0000
0000
1000
0001
,
0000
0000
0010
0100
,
0000
0000
1000
0001
,
0000
0000
1000
0010
,
0000
1010
0000
0010
,
0000
0100
0000
0010
,
0000
0100
0001
0100
,
0000
0001
0000
0010
,
0000
0100
1000
0001
,
0000
0010
0000
0100
,
0000
1000
0010
1000
,
0000
0001
0000
1000
,
0000
0010
0100
0001
,
0000
0100
0000
0001
,
0010
0001
0000
0100
,
0000
0001
0000
1000
,
0001
0100
0000
0010
,
1000
0100
0000
1000
,
0000
0000
0001
0010
,
0001
1000
0100
0010
,
0000
0110
0000
1000
,
0000
0100
0000
0010
,
0000
0001
0000
0001
,
0000
0010
0000
0100
,
0000
1000
0000
1000
,
0000
0100
0000
0010
,
0000
0001
0000
1000
,
0000
0010
0010
0010
,
0000
1010
0000
1000
,
0000
0001
0000
0100
,
0000
0010
0000
1001
,
0000
0100
0000
0010
,
0000
1000
0000
1100
,
0000
0010
0000
0100
,
0000
0001
0000
0101
,
0000
0001
0000
1000
,
0000
0100
0000
0110
,
0000
0010
0000
0100
,
0000
0010
0000
1001
,
0000
0100
0000
0101
,
0000
1010
0000
0000
;

//---------------dance-single - ----------------
#NOTES:
     dance-single:
     :
     Medium:
     5:
     0.334,0.327,0.219,0.042,0.000,199.000,21.000,4.000,0.000,0.000:
0000
0000
0000
1000
,
0000
0001
0000
0000
1000
0000
0010
0000
,
0000
0100
0000
0000
0010
0000
0100
0000
,
0000
0001
0000
0000
0100
0000
0010
0000
,
1000
1100
0000
1000
0010
0000
0100
0000
,
0000
0001
0000
1000
0100
0000
0100
0000
,
0000
1000
0000
0001
0010
0000
0100
0000
,
0000
1000
0000
0001
0100
0000
0010
0000
,
1000
0010
1000
0001
,
0010
0000
0100
0000
0100
0000
0010
0100
,
1000
0000
0001
0010
0100
0000
0000
1000
,
0100
1000
0010
0000
1000
0000
1000
0000
,
0001
1000
0000
0010
0100
0010
0000
0100
,
0001
0100
0010
0000
0010
0000
0100
0000
,
0001
0000
1000
0010
1000
0010
0000
0100
,
0010
0100
0010
0000
0100
0000
0001
0000
,
0100
0000
0010
0000
1000
0001
0100
0000
,
0000
0000
0000
0000
0000
0010
0100
0001
,
0100
0000
0010
1000
0010
0100
0000
0001
,
0000
0000
0000
0000
0000
0100
0010
1000
,
0100
0010
0000
0001
1000
0010
0000
0010
,
1000
0000
0000
0000
0000
0100
0010
1000
,
0001
0100
0000
0010
1000
0100
0000
0000
,
0010
0100
1000
0001
0100
0000
1020
0000
,
0130
0102
1003
0010
,
0100
0000
0010
1000
0000
0200
0000
1300
,
0010
0100
0000
0000
0100
0001
0010
0000
,
0010
0000
0100
1000
0000
2000
0000
3001
,
0100
0010
0000
0000
1000
0001
0100
0000
,
0010
0000
0100
0010
0000
0100
0000
0001
,
1000
0001
0000
1000
0100
0010
0100
0000
,
0000
1000
0100
0010
0001
0000
1100
0000
,
1000
0011
0001
0110
,
0000
0101
0000
0000
0010
0000
1000
0000
,
0000
0010
0000
1000
0100
0000
1010
0000
,
0000
1100
0000
0000
0010
0000
1000
0000
,
0000
0010
0000
0100
0001
0000
0110
0000
,
0000
1001
0000
0001
1000
0000
0010
0100
,
0010
0100
0000
0100
0010
0000
1010
0000
,
0000
0110
0000
0000
0100
0000
0010
1000
,
0001
0100
0000
0001
1000
0000
0011
0000
,
0000
1001
0000
0000
1000
0000
0001
1000
,
0100
0010
0000
0001
1000
0000
1010
0000
,
0000
0101
0000
0000
0010
0000
0011
0000
,
0011
0110
0110
0001
;
